Przeszukaj dyskusje:
Pokazywanie wyników dla 
Zamiast tego wyszukaj 
Czy chodzi o 
Wyszukiwanie zaawansowane...
Witamy na Forum pomocy technicznej Nokia- dyskusje! Tutaj możesz dzielić się poradami i wskazówkami z tysiącami innych użytkowników urządzeń Nokia z całego świata w języku polskim. Więcej informacji znajdziesz w naszych wskazówkach. Każdy może wyszukiwać dyskusje i czytać ich treść, ale jeśli chcesz publikować własne pytania i odpowiadać na pytania innych, musisz się zalogować za pośrednictwem konta Nokia. Jeśli jesteś tutaj po raz pierwszy, możesz wybrać pseudonim. Jeśli nie masz jeszcze konta Nokia, zarejestruj się.
Odpowiedz

lumia 920 odtwarzanie filmów

Doradca
maciejwi
Posty: 45

lumia 920 odtwarzanie filmów

Witam. Miałem nadzieję, że aktualizacja amber ulepszyła możliwości odtwarzania filmów - niestety jak było źle tak jest. Ściągnąłem jeden dla sprawdzenia i w dalszym ciągu komunikat, że niestety nie odtwarza. Może ktoś z nadzorujących tutaj przesłałby sugestię o poprawienie funkcji odtwarzania filmów, bo na razie ten odtwarzacz mało co odtwarza, a konwertowanie każdego nowego filmu troszkę mija się z celem. Aha moja nokia N8 odtwarza ten film bez najmniejszego problemu.

Poniżej właściwości pliku.

 

Format                         : AVI Format/Info                    : Audio Video Interleave File size                      : 697 MiB Duration                       : 1h 26mn Overall bit rate               : 1 128 Kbps

Video ID                             : 0 Format                         : MPEG-4 Visual Format profile                 : Advanced Simple@L5 Format settings, BVOP          : 3 Format settings, QPel          : No Format settings, GMC           : No warppoints Format settings, Matrix        : Default (H.263) Codec ID                       : XVID Codec ID/Hint                  : XviD Duration                       : 1h 26mn Bit rate                       : 991 Kbps Width                          : 640 pixels Height                         : 352 pixels Display aspect ratio           : 16:9 Frame rate                     : 23.976 fps Color space                    : YUV Chroma subsampling             : 4:2:0 Bit depth                      : 8 bits Scan type                      : Progressive Compression mode               : Lossy Bits/(Pixel*Frame)             : 0.184 Stream size                    : 612 MiB (88%) Writing library                : XviD 64

Audio ID                             : 1 Format                         : AC-3 Format/Info                    : Audio Coding 3 Mode extension                 : CM (complete main) Format settings, Endianness    : Big Codec ID                       : 2000 Duration                       : 1h 26mn Source duration                : 1h 26mn Bit rate mode                  : Constant Bit rate                       : 128 Kbps Channel(s)                     : 2 channels Channel positions              : Front: L R Sampling rate                  : 48.0 KHz Bit depth                      : 16 bits Compression mode               : Lossy Stream size                    : 78.9 MiB (11%) Alignment                      : Aligned on interleaves Interleave, duration           : 42 ms (1.00 video frame)

Użyj zwykłego tekstu.
Ex-Moderator (Retired)
bodziek
Posty: 243

Dot.: lumia 920 odtwarzanie filmów

Cześć maciejwi :smileyhappy:

 

Odtwarzacz wideo fabrycznie zainstalowany w smartfonach z serii Nokia Lumia na systemie Windows Phone, łącznie z najnowszą aktualizacją Amber nie odtwarza plików AVI.

 

Pozostaje możliwość skorzystania z innej aplikacji jak np. Yxplayer lub zmiana formatu.

 

Pozdrowienia!

 Nokia Lumia 1020 -  Nic nie jest tak blisko Nokia Asha 501 - Super moc w kieszeni 

Obserwuj nas na Twitterze Oglądaj filmiki Nokia

Użyj zwykłego tekstu.
Doradca
maciejwi
Posty: 45

Dot.: lumia 920 odtwarzanie filmów

Witam.

Program o którym piszesz nie dość, że jest płatny to na dodatek ma bardzo kiepskie recenzje użytkowników. A moje pytanie jest następujące: czemu tworząc tak multimedialny, topowy telefon niezauważono takich braków, albo czemu ich nie poprawiono? Ani nokia ani microsoft. Nokia N8 odtwarza wszystko co tylko do nie wrzucę. A L920 prawie nic - to chyba najprościej ujmując wstyd dla producentów. Aha - wiem, że można konwertować ale to chyba nie jest zabawa dla dorosłych ludzi - chciałbym normalnie - kupuję topowy, multimedialny telefon (takie były reklamy nokii), ściągam film, oglądam i wszystko. A tak - żenada, po prostu żenada.

Użyj zwykłego tekstu.
Zarejestrowany użytkownik
komandos65
Posty: 1

Dot.: lumia 920 odtwarzanie filmów

[ Edytowane ]

Kolega musi sobie sprawdzić, co usiłuje wgrać do telefonu, ponieważ nie miałem problemu w swojej 720 - AMBER problemu z plikami .avi - najprostszy sposób aby sprawdzić, czy plik nadaje się do odtworzenia, to przeciągnąć do folderu Video's na karcie micro SD i poczekać, czy rozpocznie kopiowanie, czy zapyta się o wykonanie konwersji pliku.

P.S.

  • Formaty odtwarzania plików wideo: MP4, WMV, AVI, 3GP, 3G2, M4V, MOV;
  • Liczba klatek na sekundę odtwarzania wideo: 30 kl./s
  • Formaty kodowania odtwarzania wideo: VC-1, Wideo systemu Windows, H.264/AVC, H.263, MPEG-4
Użyj zwykłego tekstu.